#TITLE:Max CRAP v2;
#SUBTITLE:;
#ARTIST:Djsmalls;
#TITLETRANSLIT:;
#SUBTITLETRANSLIT:;
#ARTISTTRANSLIT:;
#CREDIT:;
#BANNER:Max CRAP.PNG;
#BACKGROUND:Max CRAP-bg.PNG;
#LYRICSPATH:;
#CDTITLE:cdtitle.png;
#MUSIC:Max Crap v2.mp3;
#OFFSET:-0.900;
#SAMPLESTART:20.000;
#SAMPLELENGTH:12.000;
#SELECTABLE:YES;
#DISPLAYBPM:10000.000;
#BPMS:0.000=322.220,32.000=329.040,64.000=77.780,67.000=50.000,68.000=303.480,98.000=246.461,100.000=303.500,129.000=659.996,136.000=303.520,164.500=449.999,168.000=303.520,236.000=325.641,260.000=327.481,299.000=333.001,360.000=48.241,372.000=96.241,380.000=599.997;
#STOPS:67.750=0.060
,67.938=0.140
,360.000=2.240
,506.000=1.040
,507.000=0.540
,508.000=2.440
,509.000=1.620
,510.000=1.820
,510.167=0.720
,510.250=1.820
,510.500=0.180
,510.750=2.020
,511.000=1.400
,511.750=1.820
,511.813=1.840
,511.875=0.920
,511.938=0.480
;
#BGCHANGES:;
// cache tags:
#FIRSTBEAT:0.000;
#LASTBEAT:516.375;
#SONGFILENAME:Songs/Music V.I.P ^_^/Max CRAP v2/blankdwifile.sm;
#HASMUSIC:1;
#HASBANNER:1;
#MUSICLENGTH:126.153;
// end cache tags

//---------------dance-single - ----------------
#NOTES:
     dance-single:
     :
     Challenge:
     8:
     0.968,1.000,0.840,0.063,0.083,741.000,106.000,8.000,0.000,0.000:
1001
0000
0000
0000
1100
0000
0000
0011
,
0000
0000
0011
0000
0000
0110
0000
0000
,
1001
0000
0110
0000
0000
1001
0000
0000
,
1100
0000
0110
0000
0000
0011
0000
0000
,
0110
0000
0011
0000
0000
1001
0000
0000
,
0011
0000
0110
0000
0000
0101
0000
0000
,
1001
0000
1100
0000
0000
0101
0000
0000
,
0110
0000
1100
0000
0000
1001
0000
0000
,
0110
0000
0011
0000
0000
1001
0000
0000
,
1100
0000
0110
0000
0000
0011
0000
0000
,
1001
0000
0110
0000
0000
1001
0000
0000
,
0110
0000
1001
0000
0000
0110
0000
0000
,
1100
0000
0110
0000
0000
0011
0000
0000
,
0011
0000
0110
0000
0000
1100
0000
0000
,
1001
0000
0110
0000
0000
0011
0000
0000
,
0110
0000
1100
0000
0000
0110
0000
0000
,
2002
0000
0000
0000
0000
0000
0000
0000
0000
0000
0000
0000
0000
0000
0000
3003
,
1000
0100
0010
0001
0010
0001
0010
0100
,
1000
0100
1000
0100
0010
0001
0010
0001
,
0010
0100
1000
0100
0010
0001
0010
0100
,
1000
0100
0010
0100
1000
0100
0010
1000
,
0010
0001
0010
0100
0010
0001
0100
0010
,
1000
0100
0010
0001
0100
1000
0100
0010
,
0001
0010
0100
0010
1000
0100
0010
1000
,
0100
0010
0001
0010
0200
0000
0000
0300
,
1000
0100
0010
0001
0010
0001
0010
0100
,
1000
0100
1000
0100
0010
0001
0010
0001
,
0010
0100
1000
0100
0100
0010
0010
0001
,
0001
0010
0010
0100
0100
1000
1000
0010
,
0001
0010
0100
1000
0100
0010
0001
0010
,
0100
0010
0001
0010
0100
1000
0100
1000
,
0100
0010
0001
0010
0001
0010
0100
1000
,
0100
0010
0001
0000
1000
0000
0000
0000
,
0000
0001
0000
0000
0000
0000
0000
0000
,
1000
0100
0010
0001
0010
0001
0010
0100
,
1000
0100
1000
0100
0010
0001
0010
0100
,
1000
0100
0010
0001
0010
0100
0010
0001
,
0010
0100
1000
0100
0010
0100
1000
0100
,
0010
0001
0010
0100
1000
0001
0010
0100
,
1000
0011
0110
1100
0110
0011
0110
1100
,
0110
0011
0110
1100
0010
0001
0010
0100
,
1000
0100
0000
1000
0000
0001
0000
0000
,
1000
0100
0010
0001
0001
0010
0100
1000
,
1000
0100
0010
0001
1000
0100
0010
0001
,
1000
0100
0010
0001
0001
0010
0100
1000
,
0001
0010
0100
1000
0001
0010
0100
1000
,
0001
0010
0100
1000
0100
0001
0010
1000
,
0100
0001
0010
1000
0001
0100
0010
1000
,
0001
0100
0010
1000
0010
0100
0010
0100
,
0010
0001
1000
0001
1000
0001
0010
0001
,
0010
1000
0100
1000
0100
1000
0000
0001
,
0010
0001
0010
0001
0000
1000
0100
1000
,
0100
1000
0000
0010
0100
0010
0100
0010
,
0000
1000
0001
1000
0001
1000
0000
0010
,
0100
0010
0100
0010
0000
1000
0100
0010
,
0001
0010
0000
0010
0100
1000
0100
0010
,
0000
0001
0010
0100
0010
0001
0000
0100
,
1000
0100
0010
0100
0000
0010
0001
0010
,
0100
0010
0000
1000
0100
0010
0100
0001
,
1000
0100
0010
0001
0011
0000
0000
1100
,
0000
0011
0110
1010
,
0001
0010
0001
0100
1000
0100
0010
0100
,
1000
0100
0010
0001
0010
0000
0010
0000
,
0010
0000
0010
0000
1100
0000
0000
0011
,
0000
0000
1100
0000
0011
0100
1000
0100
,
0010
0001
0010
0100
1000
0100
0010
0001
,
0000
0100
0000
0100
0000
0100
0000
0100
,
0000
0100
0000
0101
0000
0000
0101
0000
,
0000
0110
0000
1001
0000
1001
0001
0010
,
0100
1000
0100
0010
0001
0010
0001
0100
,
1000
0011
0110
1100
,
0011
0000
1100
0000
0000
0110
0000
0000
,
0110
0000
0110
0000
1000
0100
1000
0100
,
0010
0001
0010
0001
0100
1000
0100
0010
,
0001
0000
1000
0000
0001
0000
1000
0100
,
0010
0001
1000
0100
0010
0001
1000
0100
,
0010
0001
1000
0100
0010
0001
0001
0010
,
0100
1000
0001
0010
0100
1000
0001
0010
,
0100
1000
0001
0010
0100
1000
0010
0001
,
0100
1000
0010
0001
0100
1000
0010
0001
,
0100
1000
0010
0001
0100
1000
0100
0001
,
0010
1000
0100
0001
0010
1000
0100
0001
,
0010
1000
0100
0001
0010
1000
0100
0010
,
0001
0010
0100
0010
0001
0010
0100
1000
,
0010
0100
1000
0100
0010
0100
1000
0100
,
0010
0001
0010
0100
1000
0100
0010
0001
,
0010
0100
1000
0010
0100
0100
0100
1000
,
1000
1000
0010
0010
0010
0001
0001
0001
,
0010
0100
1000
0100
0010
0100
1000
0100
,
0010
0001
0010
0100
0010
0001
0010
0101
,
1001
1001
0000
0000
0000
1001
0000
0000
0000
1001
0000
0000
0000
0000
0000
0000
0000
0110
0000
0000
0000
0110
0000
0000
0000
0110
0000
0000
0000
0000
0000
0000
,
0000
1000
0000
0100
0000
1000
0000
0000
0000
0001
0000
0010
0000
0001
0000
0000
0000
1100
0000
0000
0000
0110
0000
0000
0000
0011
0000
0000
0000
1000
0000
1000
,
0110
0000
0011
0000
0110
0000
1000
1000
0110
0011
0110
1100
0110
0000
0000
0000
,
1000
0100
0001
0010
,
0100
0000
1000
0000
0200
0000
0000
0300
,
1000
0100
0010
0001
,
0010
0100
1000
0100
,
0010
0001
0010
0100
,
1000
0100
0010
0001
,
0010
0100
1000
0100
,
0010
0001
0010
0100
,
1000
0100
0010
0001
,
0010
0100
1000
0100
,
1000
0100
1000
0100
1000
0000
0001
0010
,
0001
0010
0001
0000
1000
0100
1000
0100
,
1000
0000
0001
0010
0001
0010
0001
0000
,
1000
0100
1000
0100
1000
0000
0001
0010
,
0001
0010
0001
0000
1000
0100
1000
0100
,
1000
0000
0010
0001
0010
0001
0010
0000
,
1000
0100
1000
0100
1000
0000
0001
0000
,
0100
0010
0001
0100
,
1000
0100
0010
0001
,
0010
0001
0010
0100
,
1000
0100
0010
0001
,
0100
1000
0100
0010
,
0001
0100
0001
0010
,
0100
0010
0001
0010
,
0100
1000
0100
0010
,
0100
1000
0100
0010
,
0100
0001
0010
0100
,
0010
0001
0001
0010
,
0100
1000
1000
0100
,
0010
0001
0010
0100
,
1000
0100
0010
0001
,
0001
0010
1000
0100
,
0010
1001
0110
1001
,
0110
2002
0000
0000
,
0000
0000
0000
0000
,
3003
0000
0000
0220
0000
0000
0000
0000
0000
0000
0000
0000
0000
0000
0000
0000
0000
0000
0000
0000
0000
0000
0000
0000
0000
0000
0000
0000
0000
0000
0000
0000
,
0000
0000
0000
0330
0000
0000
0000
0000
0000
0000
0000
0000
0000
0000
0000
0000
0000
0000
0000
0000
0000
0000
0000
0000
0000
0000
0000
0000
0000
0000
0000
0000
;

//---------------dance-single - ----------------
#NOTES:
     dance-single:
     :
     Beginner:
     1:
     0.000,0.000,0.000,0.000,0.000,0.000,0.000,0.000,0.000,0.000:
0000
0000
0000
0000
;
